999
dxfrw 0.5.11
0
SECTION
2
HEADER
9
$ACADVER
1
AC1021
9
$HANDSEED
5
20000
9
$DWGCODEPAGE
3
ANSI_1252
9
$INSBASE
10
0
20
0
30
0
9
$EXTMIN
10
10000000000
20
10000000000
30
0
9
$EXTMAX
10
-10000000000
20
-10000000000
30
0
9
$LIMMIN
10
0
20
0
9
$LIMMAX
10
420
20
297
9
$ORTHOMODE
70
0
9
$LTSCALE
40
1
9
$TEXTSTYLE
7
STANDARD
9
$CLAYER
8
1D
9
$DIMASZ
40
2.5
9
$DIMLFAC
40
1
9
$DIMSCALE
40
0.02
9
$DIMEXO
40
0.625
9
$DIMEXE
40
1.25
9
$DIMTXT
40
2.5
9
$DIMTSZ
40
0
9
$DIMAUNIT
70
0
9
$DIMADEC
70
2
9
$DIMLUNIT
70
2
9
$DIMSTYLE
2
Standard
9
$DIMGAP
40
0.625
9
$DIMTIH
70
0
9
$LUNITS
70
2
9
$LUPREC
70
4
9
$AUNITS
70
0
9
$AUPREC
70
2
9
$SPLINESEGS
70
8
9
$GRIDMODE
70
1
9
$SNAPSTYLE
70
0
9
$GRIDUNIT
10
0
20
0
9
$PINSBASE
10
-29.0608397676
20
-43267.0940569
30
0
9
$PLIMMIN
10
0
20
0
9
$PLIMMAX
10
297
20
210
9
$INSUNITS
70
4
9
$PSVPSCALE
40
200
0
ENDSEC
0
SECTION
2
CLASSES
0
ENDSEC
0
SECTION
2
TABLES
0
TABLE
2
VPORT
5
8
330
0
100
AcDbSymbolTable
70
1
0
VPORT
5
31
330
2
100
AcDbSymbolTableRecord
100
AcDbViewportTableRecord
2
*ACTIVE
70
0
10
0
20
0
11
1
21
1
12
1.0885529572
22
108.958770335
13
0
23
0
14
10
24
10
15
10
25
10
16
0
26
0
36
1
17
0
27
0
37
0
40
2.19780083753
41
1.95668549906
42
50
43
0
44
0
50
0
51
0
71
0
72
100
73
1
74
3
75
0
76
1
77
0
78
0
281
0
65
1
110
0
120
0
130
0
111
1
121
0
131
0
112
0
122
1
132
0
79
0
146
0
348
10020
60
7
61
5
292
1
282
1
141
0
142
0
63
250
421
3358443
0
ENDTAB
0
TABLE
2
LTYPE
5
5
330
0
100
AcDbSymbolTable
70
4
0
LTYPE
5
14
330
5
100
AcDbSymbolTableRecord
100
AcDbLinetypeTableRecord
2
ByBlock
70
0
3

72
65
73
0
40
0
0
LTYPE
5
15
330
5
100
AcDbSymbolTableRecord
100
AcDbLinetypeTableRecord
2
ByLayer
70
0
3

72
65
73
0
40
0
0
LTYPE
5
16
330
5
100
AcDbSymbolTableRecord
100
AcDbLinetypeTableRecord
2
Continuous
70
0
3
Solid line
72
65
73
0
40
0
0
LTYPE
5
32
330
5
100
AcDbSymbolTableRecord
100
AcDbLinetypeTableRecord
2
DOT
70
0
3
Dot . . . . . . . . . . . . . . . . . . . . . .
72
65
73
2
40
6.35
49
0
74
0
49
-6.35
74
0
0
LTYPE
5
33
330
5
100
AcDbSymbolTableRecord
100
AcDbLinetypeTableRecord
2
DOT2
70
0
3
Dot (.5x) .....................................
72
65
73
2
40
3.175
49
0
74
0
49
-3.175
74
0
0
LTYPE
5
34
330
5
100
AcDbSymbolTableRecord
100
AcDbLinetypeTableRecord
2
DOTX2
70
0
3
Dot (2x) .  .  .  .  .  .  .  .  .  .  .  .  .
72
65
73
2
40
12.7
49
0
74
0
49
-12.7
74
0
0
LTYPE
5
35
330
5
100
AcDbSymbolTableRecord
100
AcDbLinetypeTableRecord
2
DASHED
70
0
3
Dot . . . . . . . . . . . . . . . . . . . . . .
72
65
73
2
40
19.05
49
12.7
74
0
49
-6.35
74
0
0
LTYPE
5
36
330
5
100
AcDbSymbolTableRecord
100
AcDbLinetypeTableRecord
2
DASHED2
70
0
3
Dashed (.5x) _ _ _ _ _ _ _ _ _ _ _ _ _ _ _ _ _
72
65
73
2
40
9.525
49
6.35
74
0
49
-3.175
74
0
0
LTYPE
5
37
330
5
100
AcDbSymbolTableRecord
100
AcDbLinetypeTableRecord
2
DASHEDX2
70
0
3
Dashed (2x) ____  ____  ____  ____  ____  ___
72
65
73
2
40
38.1
49
25.4
74
0
49
-12.7
74
0
0
LTYPE
5
38
330
5
100
AcDbSymbolTableRecord
100
AcDbLinetypeTableRecord
2
DASHDOT
70
0
3
Dash dot __ . __ . __ . __ . __ . __ . __ . __
72
65
73
4
40
25.4
49
12.7
74
0
49
-6.35
74
0
49
0
74
0
49
-6.35
74
0
0
LTYPE
5
39
330
5
100
AcDbSymbolTableRecord
100
AcDbLinetypeTableRecord
2
DASHDOT2
70
0
3
Dash dot (.5x) _._._._._._._._._._._._._._._.
72
65
73
4
40
12.7
49
6.35
74
0
49
-3.175
74
0
49
0
74
0
49
-3.175
74
0
0
LTYPE
5
3A
330
5
100
AcDbSymbolTableRecord
100
AcDbLinetypeTableRecord
2
DASHDOTX2
70
0
3
Dash dot (2x) ____  .  ____  .  ____  .  ___
72
65
73
4
40
50.8
49
25.4
74
0
49
-12.7
74
0
49
0
74
0
49
-12.7
74
0
0
LTYPE
5
3B
330
5
100
AcDbSymbolTableRecord
100
AcDbLinetypeTableRecord
2
DIVIDE
70
0
3
Divide ____ . . ____ . . ____ . . ____ . . ____
72
65
73
6
40
31.75
49
12.7
74
0
49
-6.35
74
0
49
0
74
0
49
-6.35
74
0
49
0
74
0
49
-6.35
74
0
0
LTYPE
5
3C
330
5
100
AcDbSymbolTableRecord
100
AcDbLinetypeTableRecord
2
DIVIDE2
70
0
3
Divide (.5x) __..__..__..__..__..__..__..__.._
72
65
73
6
40
15.875
49
6.35
74
0
49
-3.175
74
0
49
0
74
0
49
-3.175
74
0
49
0
74
0
49
-3.175
74
0
0
LTYPE
5
3D
330
5
100
AcDbSymbolTableRecord
100
AcDbLinetypeTableRecord
2
DIVIDEX2
70
0
3
Divide (2x) ________  .  .  ________  .  .  _
72
65
73
6
40
63.5
49
25.4
74
0
49
-12.7
74
0
49
0
74
0
49
-12.7
74
0
49
0
74
0
49
-12.7
74
0
0
LTYPE
5
3E
330
5
100
AcDbSymbolTableRecord
100
AcDbLinetypeTableRecord
2
BORDER
70
0
3
Border __ __ . __ __ . __ __ . __ __ . __ __ .
72
65
73
6
40
44.45
49
12.7
74
0
49
-6.35
74
0
49
12.7
74
0
49
-6.35
74
0
49
0
74
0
49
-6.35
74
0
0
LTYPE
5
3F
330
5
100
AcDbSymbolTableRecord
100
AcDbLinetypeTableRecord
2
BORDER2
70
0
3
Border (.5x) __.__.__.__.__.__.__.__.__.__.__.
72
65
73
6
40
22.225
49
6.35
74
0
49
-3.175
74
0
49
6.35
74
0
49
-3.175
74
0
49
0
74
0
49
-3.175
74
0
0
LTYPE
5
40
330
5
100
AcDbSymbolTableRecord
100
AcDbLinetypeTableRecord
2
BORDERX2
70
0
3
Border (2x) ____  ____  .  ____  ____  .  ___
72
65
73
6
40
88.9
49
25.4
74
0
49
-12.7
74
0
49
25.4
74
0
49
-12.7
74
0
49
0
74
0
49
-12.7
74
0
0
LTYPE
5
41
330
5
100
AcDbSymbolTableRecord
100
AcDbLinetypeTableRecord
2
CENTER
70
0
3
Center ____ _ ____ _ ____ _ ____ _ ____ _ ____
72
65
73
4
40
50.8
49
31.75
74
0
49
-6.35
74
0
49
6.35
74
0
49
-6.35
74
0
0
LTYPE
5
42
330
5
100
AcDbSymbolTableRecord
100
AcDbLinetypeTableRecord
2
CENTER2
70
0
3
Center (.5x) ___ _ ___ _ ___ _ ___ _ ___ _ ___
72
65
73
4
40
28.575
49
19.05
74
0
49
-3.175
74
0
49
3.175
74
0
49
-3.175
74
0
0
LTYPE
5
43
330
5
100
AcDbSymbolTableRecord
100
AcDbLinetypeTableRecord
2
CENTERX2
70
0
3
Center (2x) ________  __  ________  __  _____
72
65
73
4
40
101.6
49
63.5
74
0
49
-12.7
74
0
49
12.7
74
0
49
-12.7
74
0
0
ENDTAB
0
TABLE
2
LAYER
5
2
330
0
100
AcDbSymbolTable
70
1
0
LAYER
5
10
330
2
100
AcDbSymbolTableRecord
100
AcDbLayerTableRecord
2
0
70
1
62
7
6
CONTINUOUS
370
0
390
F
0
LAYER
5
44
330
2
100
AcDbSymbolTableRecord
100
AcDbLayerTableRecord
2
1
70
0
62
6
6
CONTINUOUS
370
0
390
F
0
LAYER
5
45
330
2
100
AcDbSymbolTableRecord
100
AcDbLayerTableRecord
2
1D
70
1
62
7
6
CONTINUOUS
370
0
390
F
0
LAYER
5
46
330
2
100
AcDbSymbolTableRecord
100
AcDbLayerTableRecord
2
2
70
0
62
2
6
CONTINUOUS
370
0
390
F
0
LAYER
5
47
330
2
100
AcDbSymbolTableRecord
100
AcDbLayerTableRecord
2
2D
70
0
62
7
6
CONTINUOUS
370
0
390
F
0
LAYER
5
48
330
2
100
AcDbSymbolTableRecord
100
AcDbLayerTableRecord
2
3
70
1
62
3
6
CONTINUOUS
370
0
390
F
0
LAYER
5
49
330
2
100
AcDbSymbolTableRecord
100
AcDbLayerTableRecord
2
3D
70
1
62
7
6
CONTINUOUS
370
0
390
F
0
LAYER
5
4A
330
2
100
AcDbSymbolTableRecord
100
AcDbLayerTableRecord
2
4
70
1
62
1
6
CONTINUOUS
370
0
390
F
0
LAYER
5
4B
330
2
100
AcDbSymbolTableRecord
100
AcDbLayerTableRecord
2
4D
70
1
62
7
6
CONTINUOUS
370
0
390
F
0
LAYER
5
4C
330
2
100
AcDbSymbolTableRecord
100
AcDbLayerTableRecord
2
5
70
0
62
5
6
CONTINUOUS
370
0
390
F
0
LAYER
5
4D
330
2
100
AcDbSymbolTableRecord
100
AcDbLayerTableRecord
2
5D
70
5
62
7
6
CONTINUOUS
370
0
390
F
0
ENDTAB
0
TABLE
2
STYLE
5
3
330
0
100
AcDbSymbolTable
70
3
0
STYLE
5
4E
330
2
100
AcDbSymbolTableRecord
100
AcDbTextStyleTableRecord
2
opengosttypea-regular
70
0
40
0
41
1
50
0
71
0
42
1
3
opengosttypea-regular
4

0
STYLE
5
4F
330
2
100
AcDbSymbolTableRecord
100
AcDbTextStyleTableRecord
2
iso
70
0
40
0
41
1
50
0
71
0
42
1
3
iso
4

0
STYLE
5
50
330
2
100
AcDbSymbolTableRecord
100
AcDbTextStyleTableRecord
2
Standard
70
0
40
0
41
1
50
0
71
0
42
1
3
txt
4

0
ENDTAB
0
TABLE
2
VIEW
5
6
330
0
100
AcDbSymbolTable
70
0
0
ENDTAB
0
TABLE
2
UCS
5
7
330
0
100
AcDbSymbolTable
70
0
0
ENDTAB
0
TABLE
2
APPID
5
9
330
0
100
AcDbSymbolTable
70
1
0
APPID
5
12
330
9
100
AcDbSymbolTableRecord
100
AcDbRegAppTableRecord
2
ACAD
70
0
0
ENDTAB
0
TABLE
2
DIMSTYLE
5
A
330
0
100
AcDbSymbolTable
70
1
100
AcDbDimStyleTable
71
1
0
DIMSTYLE
105
51
330
A
100
AcDbSymbolTableRecord
100
AcDbDimStyleTableRecord
2
Standard
70
0
40
1
41
2.5
42
0.625
43
0.38
44
1.25
45
0
46
0
47
0
48
0
140
2.5
141
0.09
142
0
143
25.4
144
1
145
0
146
1
147
0.625
148
0
71
0
72
0
73
0
74
1
75
0
76
0
77
0
78
0
79
0
170
0
171
2
172
0
173
0
174
0
175
0
176
0
177
0
178
0
179
0
271
4
272
4
273
2
274
2
275
0
276
0
277
2
278
46
279
0
280
0
281
0
282
0
283
1
284
0
285
0
286
0
288
0
289
3
340
Standard
341

371
-2
372
-2
0
ENDTAB
0
TABLE
2
BLOCK_RECORD
5
1
330
0
100
AcDbSymbolTable
70
2
0
BLOCK_RECORD
5
1F
330
1
100
AcDbSymbolTableRecord
100
AcDbBlockTableRecord
2
*Model_Space
70
0
280
1
281
0
0
BLOCK_RECORD
5
1E
330
1
100
AcDbSymbolTableRecord
100
AcDbBlockTableRecord
2
*Paper_Space
70
0
280
1
281
0
0
BLOCK_RECORD
5
52
330
1
100
AcDbSymbolTableRecord
100
AcDbBlockTableRecord
2
*D24
70
0
280
1
281
0
0
BLOCK_RECORD
5
55
330
1
100
AcDbSymbolTableRecord
100
AcDbBlockTableRecord
2
*D7
70
0
280
1
281
0
0
BLOCK_RECORD
5
58
330
1
100
AcDbSymbolTableRecord
100
AcDbBlockTableRecord
2
*D26
70
0
280
1
281
0
0
BLOCK_RECORD
5
5B
330
1
100
AcDbSymbolTableRecord
100
AcDbBlockTableRecord
2
*D2
70
0
280
1
281
0
0
BLOCK_RECORD
5
5E
330
1
100
AcDbSymbolTableRecord
100
AcDbBlockTableRecord
2
*D11
70
0
280
1
281
0
0
BLOCK_RECORD
5
61
330
1
100
AcDbSymbolTableRecord
100
AcDbBlockTableRecord
2
*D13
70
0
280
1
281
0
0
BLOCK_RECORD
5
64
330
1
100
AcDbSymbolTableRecord
100
AcDbBlockTableRecord
2
*D14
70
0
280
1
281
0
0
BLOCK_RECORD
5
67
330
1
100
AcDbSymbolTableRecord
100
AcDbBlockTableRecord
2
*D21
70
0
280
1
281
0
0
BLOCK_RECORD
5
6A
330
1
100
AcDbSymbolTableRecord
100
AcDbBlockTableRecord
2
*D25
70
0
280
1
281
0
0
BLOCK_RECORD
5
6D
330
1
100
AcDbSymbolTableRecord
100
AcDbBlockTableRecord
2
*D3
70
0
280
1
281
0
0
BLOCK_RECORD
5
70
330
1
100
AcDbSymbolTableRecord
100
AcDbBlockTableRecord
2
*D9
70
0
280
1
281
0
0
BLOCK_RECORD
5
73
330
1
100
AcDbSymbolTableRecord
100
AcDbBlockTableRecord
2
*D1
70
0
280
1
281
0
0
BLOCK_RECORD
5
76
330
1
100
AcDbSymbolTableRecord
100
AcDbBlockTableRecord
2
*D5
70
0
280
1
281
0
0
BLOCK_RECORD
5
79
330
1
100
AcDbSymbolTableRecord
100
AcDbBlockTableRecord
2
*D17
70
0
280
1
281
0
0
BLOCK_RECORD
5
7C
330
1
100
AcDbSymbolTableRecord
100
AcDbBlockTableRecord
2
*D16
70
0
280
1
281
0
0
BLOCK_RECORD
5
7F
330
1
100
AcDbSymbolTableRecord
100
AcDbBlockTableRecord
2
*D18
70
0
280
1
281
0
0
BLOCK_RECORD
5
82
330
1
100
AcDbSymbolTableRecord
100
AcDbBlockTableRecord
2
*D12
70
0
280
1
281
0
0
BLOCK_RECORD
5
85
330
1
100
AcDbSymbolTableRecord
100
AcDbBlockTableRecord
2
*D4
70
0
280
1
281
0
0
BLOCK_RECORD
5
88
330
1
100
AcDbSymbolTableRecord
100
AcDbBlockTableRecord
2
*D22
70
0
280
1
281
0
0
BLOCK_RECORD
5
8B
330
1
100
AcDbSymbolTableRecord
100
AcDbBlockTableRecord
2
*D10
70
0
280
1
281
0
0
BLOCK_RECORD
5
8E
330
1
100
AcDbSymbolTableRecord
100
AcDbBlockTableRecord
2
*D19
70
0
280
1
281
0
0
BLOCK_RECORD
5
91
330
1
100
AcDbSymbolTableRecord
100
AcDbBlockTableRecord
2
*D15
70
0
280
1
281
0
0
BLOCK_RECORD
5
94
330
1
100
AcDbSymbolTableRecord
100
AcDbBlockTableRecord
2
*D23
70
0
280
1
281
0
0
BLOCK_RECORD
5
97
330
1
100
AcDbSymbolTableRecord
100
AcDbBlockTableRecord
2
*D8
70
0
280
1
281
0
0
BLOCK_RECORD
5
9A
330
1
100
AcDbSymbolTableRecord
100
AcDbBlockTableRecord
2
*D20
70
0
280
1
281
0
0
BLOCK_RECORD
5
9D
330
1
100
AcDbSymbolTableRecord
100
AcDbBlockTableRecord
2
*D6
70
0
280
1
281
0
0
ENDTAB
0
ENDSEC
0
SECTION
2
BLOCKS
0
BLOCK
5
20
330
1F
100
AcDbEntity
8
0
100
AcDbBlockBegin
2
*Model_Space
70
0
10
0
20
0
30
0
3
*Model_Space
1

0
ENDBLK
5
21
330
1F
100
AcDbEntity
8
0
100
AcDbBlockEnd
0
BLOCK
5
1C
330
1B
100
AcDbEntity
8
0
100
AcDbBlockBegin
2
*Paper_Space
70
0
10
0
20
0
30
0
3
*Paper_Space
1

0
ENDBLK
5
1D
330
1F
100
AcDbEntity
8
0
100
AcDbBlockEnd
0
BLOCK
5
53
330
52
100
AcDbEntity
8
0
100
AcDbBlockBegin
2
*D24
70
1
10
0
20
0
3
*D24
1

0
LINE
5
A0
100
AcDbEntity
8
2D
6
CONTINUOUS
62
7
370
0
100
AcDbLine
10
0.762391651417
20
216.609
11
0.851985348812
21
216.68489282
0
LINE
5
A1
100
AcDbEntity
8
2D
6
CONTINUOUS
62
7
370
0
100
AcDbLine
10
0.851985348812
20
216.68489282
11
0.997363801188
21
216.590227781
0
LINE
5
A2
100
AcDbEntity
8
2D
6
CONTINUOUS
62
7
370
0
100
AcDbLine
10
0.997363801188
20
216.590227781
11
1.09371928707
21
216.588537334
0
SOLID
5
A3
100
AcDbEntity
8
2D
6
CONTINUOUS
62
7
370
0
100
AcDbTrace
10
0.762391651417
20
216.609
30
0
11
0.795162244244
21
216.647670472
31
0
12
0.805924916742
22
216.634964822
32
0
13
0.805924916742
23
216.634964822
33
0
0
ENDBLK
5
54
330
52
100
AcDbEntity
8
0
100
AcDbBlockEnd
0
BLOCK
5
56
330
55
100
AcDbEntity
8
0
100
AcDbBlockBegin
2
*D7
70
1
10
0
20
0
3
*D7
1

0
LINE
5
A4
100
AcDbEntity
8
1D
6
CONTINUOUS
62
7
370
0
100
AcDbLine
10
-1.3
20
216.7
11
-1.3
21
216.4
0
SOLID
5
A5
100
AcDbEntity
8
1D
6
CONTINUOUS
62
7
370
0
100
AcDbTrace
10
-1.3
20
216.7
30
0
11
-1.29167430684
21
216.65
31
0
12
-1.30832569316
22
216.65
32
0
13
-1.30832569316
23
216.65
33
0
0
SOLID
5
A6
100
AcDbEntity
8
1D
6
CONTINUOUS
62
7
370
0
100
AcDbTrace
10
-1.3
20
216.4
30
0
11
-1.30832569316
21
216.45
31
0
12
-1.29167430684
22
216.45
32
0
13
-1.29167430684
23
216.45
33
0
0
MTEXT
5
A7
100
AcDbEntity
8
1D
6
CONTINUOUS
62
7
370
0
100
AcDbMText
10
-1.3375
20
216.55
30
0
40
0.05
41
0.0777777777778
71
5
72
1
1
0.3
7
standard
210
0
220
0
230
1
50
90
73
2
44
1
0
LINE
5
A8
100
AcDbEntity
8
1D
6
CONTINUOUS
62
7
370
0
100
AcDbLine
10
-1.2625
20
216.7
11
-1.325
21
216.7
0
LINE
5
A9
100
AcDbEntity
8
1D
6
CONTINUOUS
62
7
370
0
100
AcDbLine
10
-0.6625
20
216.4
11
-1.325
21
216.4
0
ENDBLK
5
57
330
55
100
AcDbEntity
8
0
100
AcDbBlockEnd
0
BLOCK
5
59
330
58
100
AcDbEntity
8
0
100
AcDbBlockBegin
2
*D26
70
1
10
0
20
0
3
*D26
1

0
LINE
5
AA
100
AcDbEntity
8
1D
6
CONTINUOUS
62
7
370
0
100
AcDbLine
10
-0.0125
20
216.4
11
0.975409344217
21
216.4
0
LINE
5
AB
100
AcDbEntity
8
1D
6
CONTINUOUS
62
7
370
0
100
AcDbLine
10
1.04379826327
20
217.060853039
11
1.20014106555
21
216.787253135
0
ARC
5
AC
100
AcDbEntity
8
1D
6
CONTINUOUS
62
7
370
0
100
AcDbCircle
10
1.42142857143
20
216.4
40
0.421019227211
100
AcDbArc
50
119.744881297
51
180
0
SOLID
5
AD
100
AcDbEntity
8
1D
6
CONTINUOUS
62
7
370
0
100
AcDbTrace
10
1.00040934422
20
216.4
30
0
11
0.995065565843
21
216.450405964
31
0
12
1.0116876048
22
216.44941779
32
0
13
1.0116876048
23
216.44941779
33
0
0
SOLID
5
AE
100
AcDbEntity
8
1D
6
CONTINUOUS
62
7
370
0
100
AcDbTrace
10
1.21254453901
20
216.765547057
30
0
11
1.17523346566
21
216.731236694
31
0
12
1.16612864998
22
216.745178394
32
0
13
1.16612864998
23
216.745178394
33
0
0
MTEXT
5
AF
100
AcDbEntity
8
1D
6
CONTINUOUS
62
7
370
0
100
AcDbMText
10
1.04647341625
20
216.617594926
30
0
40
0.05
41
0.188888888889
71
8
72
1
1
60.26%%D
7
standard
210
0
220
0
230
1
50
419.872440648
73
2
44
1
0
ENDBLK
5
5A
330
58
100
AcDbEntity
8
0
100
AcDbBlockEnd
0
BLOCK
5
5C
330
5B
100
AcDbEntity
8
0
100
AcDbBlockBegin
2
*D2
70
1
10
0
20
0
3
*D2
1

0
LINE
5
B0
100
AcDbEntity
8
1D
6
CONTINUOUS
62
7
370
0
100
AcDbLine
10
-0.85
20
217.2
11
0.85
21
217.2
0
SOLID
5
B1
100
AcDbEntity
8
1D
6
CONTINUOUS
62
7
370
0
100
AcDbTrace
10
-0.85
20
217.2
30
0
11
-0.8
21
217.208325693
31
0
12
-0.8
22
217.191674307
32
0
13
-0.8
23
217.191674307
33
0
0
SOLID
5
B2
100
AcDbEntity
8
1D
6
CONTINUOUS
62
7
370
0
100
AcDbTrace
10
0.85
20
217.2
30
0
11
0.8
21
217.191674307
31
0
12
0.8
22
217.208325693
32
0
13
0.8
23
217.208325693
33
0
0
MTEXT
5
B3
100
AcDbEntity
8
1D
6
CONTINUOUS
62
7
370
0
100
AcDbMText
10
2.2962127484e-18
20
217.2375
30
0
40
0.05
41
0.0666666666667
71
5
72
1
1
1.7
7
standard
210
0
220
0
230
1
50
0
73
2
44
1
0
LINE
5
B4
100
AcDbEntity
8
1D
6
CONTINUOUS
62
7
370
0
100
AcDbLine
10
-0.85
20
217.0625
11
-0.85
21
217.225
0
LINE
5
B5
100
AcDbEntity
8
1D
6
CONTINUOUS
62
7
370
0
100
AcDbLine
10
0.85
20
217.0625
11
0.85
21
217.225
0
ENDBLK
5
5D
330
5B
100
AcDbEntity
8
0
100
AcDbBlockEnd
0
BLOCK
5
5F
330
5E
100
AcDbEntity
8
0
100
AcDbBlockBegin
2
*D11
70
1
10
0
20
0
3
*D11
1

0
LINE
5
B6
100
AcDbEntity
8
2D
6
CONTINUOUS
62
7
370
0
100
AcDbLine
10
0.99892944522
20
217.01
11
1.29892944522
21
217.01
0
SOLID
5
B7
100
AcDbEntity
8
2D
6
CONTINUOUS
62
7
370
0
100
AcDbTrace
10
1.09892944522
20
217.01
30
0
11
1.04892944522
21
217.001674307
31
0
12
1.04892944522
22
217.018325693
32
0
13
1.04892944522
23
217.018325693
33
0
0
SOLID
5
B8
100
AcDbEntity
8
2D
6
CONTINUOUS
62
7
370
0
100
AcDbTrace
10
1.19892944522
20
217.01
30
0
11
1.24892944522
21
217.018325693
31
0
12
1.24892944522
22
217.001674307
32
0
13
1.24892944522
23
217.001674307
33
0
0
MTEXT
5
B9
100
AcDbEntity
8
2D
6
CONTINUOUS
62
7
370
0
100
AcDbMText
10
1.14892944522
20
217.0475
30
0
40
0.05
41
0.0666666666667
71
5
72
1
1
0.1
7
standard
210
0
220
0
230
1
50
0
73
2
44
1
0
LINE
5
BA
100
AcDbEntity
8
2D
6
CONTINUOUS
62
7
370
0
100
AcDbLine
10
1.09892944522
20
217.10135889
11
1.09892944522
21
216.985
0
LINE
5
BB
100
AcDbEntity
8
2D
6
CONTINUOUS
62
7
370
0
100
AcDbLine
10
1.19892944522
20
217.10135889
11
1.19892944522
21
216.985
0
ENDBLK
5
60
330
5E
100
AcDbEntity
8
0
100
AcDbBlockEnd
0
BLOCK
5
62
330
61
100
AcDbEntity
8
0
100
AcDbBlockBegin
2
*D13
70
1
10
0
20
0
3
*D13
1

0
LINE
5
BC
100
AcDbEntity
8
3D
6
CONTINUOUS
62
7
370
0
100
AcDbLine
10
-0.6965
20
217.1
11
-0.4675
21
217.1
0
SOLID
5
BD
100
AcDbEntity
8
3D
6
CONTINUOUS
62
7
370
0
100
AcDbTrace
10
-0.6965
20
217.1
30
0
11
-0.6465
21
217.108325693
31
0
12
-0.6465
22
217.091674307
32
0
13
-0.6465
23
217.091674307
33
0
0
SOLID
5
BE
100
AcDbEntity
8
3D
6
CONTINUOUS
62
7
370
0
100
AcDbTrace
10
-0.4675
20
217.1
30
0
11
-0.5175
21
217.091674307
31
0
12
-0.5175
22
217.108325693
32
0
13
-0.5175
23
217.108325693
33
0
0
MTEXT
5
BF
100
AcDbEntity
8
3D
6
CONTINUOUS
62
7
370
0
100
AcDbMText
10
-0.582
20
217.1375
30
0
40
0.05
41
0.155555555556
71
5
72
1
1
0.229
7
standard
210
0
220
0
230
1
50
0
73
2
44
1
0
LINE
5
C0
100
AcDbEntity
8
3D
6
CONTINUOUS
62
7
370
0
100
AcDbLine
10
-0.6965
20
217.0315
11
-0.6965
21
217.125
0
LINE
5
C1
100
AcDbEntity
8
3D
6
CONTINUOUS
62
7
370
0
100
AcDbLine
10
-0.4675
20
217.0315
11
-0.4675
21
217.125
0
ENDBLK
5
63
330
61
100
AcDbEntity
8
0
100
AcDbBlockEnd
0
BLOCK
5
65
330
64
100
AcDbEntity
8
0
100
AcDbBlockBegin
2
*D14
70
1
10
0
20
0
3
*D14
1

0
LINE
5
C2
100
AcDbEntity
8
3D
6
CONTINUOUS
62
7
370
0
100
AcDbLine
10
-0.4675
20
217.1
11
0.4675
21
217.1
0
SOLID
5
C3
100
AcDbEntity
8
3D
6
CONTINUOUS
62
7
370
0
100
AcDbTrace
10
-0.4675
20
217.1
30
0
11
-0.4175
21
217.108325693
31
0
12
-0.4175
22
217.091674307
32
0
13
-0.4175
23
217.091674307
33
0
0
SOLID
5
C4
100
AcDbEntity
8
3D
6
CONTINUOUS
62
7
370
0
100
AcDbTrace
10
0.4675
20
217.1
30
0
11
0.4175
21
217.091674307
31
0
12
0.4175
22
217.108325693
32
0
13
0.4175
23
217.108325693
33
0
0
MTEXT
5
C5
100
AcDbEntity
8
3D
6
CONTINUOUS
62
7
370
0
100
AcDbMText
10
2.2962127484e-18
20
217.1375
30
0
40
0.05
41
0.155555555556
71
5
72
1
1
0.935
7
standard
210
0
220
0
230
1
50
0
73
2
44
1
0
LINE
5
C6
100
AcDbEntity
8
3D
6
CONTINUOUS
62
7
370
0
100
AcDbLine
10
-0.4675
20
217.0315
11
-0.4675
21
217.125
0
LINE
5
C7
100
AcDbEntity
8
3D
6
CONTINUOUS
62
7
370
0
100
AcDbLine
10
0.4675
20
217.0315
11
0.4675
21
217.125
0
ENDBLK
5
66
330
64
100
AcDbEntity
8
0
100
AcDbBlockEnd
0
BLOCK
5
68
330
67
100
AcDbEntity
8
0
100
AcDbBlockBegin
2
*D21
70
1
10
0
20
0
3
*D21
1

0
LINE
5
C8
100
AcDbEntity
8
5D
6
CONTINUOUS
62
7
370
0
100
AcDbLine
10
-1.0015
20
217.4
11
-0.6965
21
217.4
0
SOLID
5
C9
100
AcDbEntity
8
5D
6
CONTINUOUS
62
7
370
0
100
AcDbTrace
10
-1.0015
20
217.4
30
0
11
-0.9515
21
217.408325693
31
0
12
-0.9515
22
217.391674307
32
0
13
-0.9515
23
217.391674307
33
0
0
SOLID
5
CA
100
AcDbEntity
8
5D
6
CONTINUOUS
62
7
370
0
100
AcDbTrace
10
-0.6965
20
217.4
30
0
11
-0.7465
21
217.391674307
31
0
12
-0.7465
22
217.408325693
32
0
13
-0.7465
23
217.408325693
33
0
0
MTEXT
5
CB
100
AcDbEntity
8
5D
6
CONTINUOUS
62
7
370
0
100
AcDbMText
10
-0.849
20
217.4375
30
0
40
0.05
41
0.155555555556
71
5
72
1
1
0.305
7
standard
210
0
220
0
230
1
50
0
73
2
44
1
0
LINE
5
CC
100
AcDbEntity
8
5D
6
CONTINUOUS
62
7
370
0
100
AcDbLine
10
-1.0015
20
217.0315
11
-1.0015
21
217.425
0
LINE
5
CD
100
AcDbEntity
8
5D
6
CONTINUOUS
62
7
370
0
100
AcDbLine
10
-0.6965
20
217.0315
11
-0.6965
21
217.425
0
ENDBLK
5
69
330
67
100
AcDbEntity
8
0
100
AcDbBlockEnd
0
BLOCK
5
6B
330
6A
100
AcDbEntity
8
0
100
AcDbBlockBegin
2
*D25
70
1
10
0
20
0
3
*D25
1

0
LINE
5
CE
100
AcDbEntity
8
1D
6
CONTINUOUS
62
7
370
0
100
AcDbLine
10
2.0125
20
216.7
11
1.6679075238
21
216.7
0
LINE
5
CF
100
AcDbEntity
8
1D
6
CONTINUOUS
62
7
370
0
100
AcDbLine
10
0.85367607311
20
217.061947238
11
1.01451350444
21
217.584668889
0
ARC
5
D0
100
AcDbEntity
8
1D
6
CONTINUOUS
62
7
370
0
100
AcDbCircle
10
0.742307692308
20
216.7
40
0.900599831497
100
AcDbArc
50
0
51
72.8972710309
0
SOLID
5
D1
100
AcDbEntity
8
1D
6
CONTINUOUS
62
7
370
0
100
AcDbTrace
10
1.6429075238
20
216.7
30
0
11
1.63319725265
21
216.749749651
31
0
12
1.64984222378
22
216.750211822
32
0
13
1.64984222378
23
216.750211822
33
0
0
SOLID
5
D2
100
AcDbEntity
8
1D
6
CONTINUOUS
62
7
370
0
100
AcDbTrace
10
1.00716135822
20
217.560774414
30
0
11
1.05719216113
21
217.552635868
31
0
12
1.05185537725
22
217.536862872
32
0
13
1.05185537725
23
217.536862872
33
0
0
MTEXT
5
D3
100
AcDbEntity
8
1D
6
CONTINUOUS
62
7
370
0
100
AcDbMText
10
1.47679586843
20
217.242474351
30
0
40
0.05
41
0.15
71
8
72
1
1
72.9%%D
7
standard
210
0
220
0
230
1
50
306.448635515
73
2
44
1
0
ENDBLK
5
6C
330
6A
100
AcDbEntity
8
0
100
AcDbBlockEnd
0
BLOCK
5
6E
330
6D
100
AcDbEntity
8
0
100
AcDbBlockBegin
2
*D3
70
1
10
0
20
0
3
*D3
1

0
LINE
5
D4
100
AcDbEntity
8
1D
6
CONTINUOUS
62
7
370
0
100
AcDbLine
10
0.85
20
217.2
11
1.05
21
217.2
0
SOLID
5
D5
100
AcDbEntity
8
1D
6
CONTINUOUS
62
7
370
0
100
AcDbTrace
10
0.85
20
217.2
30
0
11
0.9
21
217.208325693
31
0
12
0.9
22
217.191674307
32
0
13
0.9
23
217.191674307
33
0
0
SOLID
5
D6
100
AcDbEntity
8
1D
6
CONTINUOUS
62
7
370
0
100
AcDbTrace
10
1.05
20
217.2
30
0
11
1
21
217.191674307
31
0
12
1
22
217.208325693
32
0
13
1
23
217.208325693
33
0
0
MTEXT
5
D7
100
AcDbEntity
8
1D
6
CONTINUOUS
62
7
370
0
100
AcDbMText
10
0.95
20
217.2375
30
0
40
0.05
41
0.0777777777778
71
5
72
1
1
0.2
7
standard
210
0
220
0
230
1
50
0
73
2
44
1
0
LINE
5
D8
100
AcDbEntity
8
1D
6
CONTINUOUS
62
7
370
0
100
AcDbLine
10
0.85
20
217.0625
11
0.85
21
217.225
0
LINE
5
D9
100
AcDbEntity
8
1D
6
CONTINUOUS
62
7
370
0
100
AcDbLine
10
1.05
20
217.0625
11
1.05
21
217.225
0
ENDBLK
5
6F
330
6D
100
AcDbEntity
8
0
100
AcDbBlockEnd
0
BLOCK
5
71
330
70
100
AcDbEntity
8
0
100
AcDbBlockBegin
2
*D9
70
1
10
0
20
0
3
*D9
1

0
LINE
5
DA
100
AcDbEntity
8
2D
6
CONTINUOUS
62
7
370
0
100
AcDbLine
10
-0.8465
20
216.3
11
0.8465
21
216.3
0
SOLID
5
DB
100
AcDbEntity
8
2D
6
CONTINUOUS
62
7
370
0
100
AcDbTrace
10
-0.8465
20
216.3
30
0
11
-0.7965
21
216.308325693
31
0
12
-0.7965
22
216.291674307
32
0
13
-0.7965
23
216.291674307
33
0
0
SOLID
5
DC
100
AcDbEntity
8
2D
6
CONTINUOUS
62
7
370
0
100
AcDbTrace
10
0.8465
20
216.3
30
0
11
0.7965
21
216.291674307
31
0
12
0.7965
22
216.308325693
32
0
13
0.7965
23
216.308325693
33
0
0
MTEXT
5
DD
100
AcDbEntity
8
2D
6
CONTINUOUS
62
7
370
0
100
AcDbMText
10
2.2962127484e-18
20
216.3375
30
0
40
0.05
41
0.144444444444
71
5
72
1
1
1.693
7
standard
210
0
220
0
230
1
50
0
73
2
44
1
0
LINE
5
DE
100
AcDbEntity
8
2D
6
CONTINUOUS
62
7
370
0
100
AcDbLine
10
-0.8465
20
216.5965
11
-0.8465
21
216.275
0
LINE
5
DF
100
AcDbEntity
8
2D
6
CONTINUOUS
62
7
370
0
100
AcDbLine
10
0.8465
20
216.5965
11
0.8465
21
216.275
0
ENDBLK
5
72
330
70
100
AcDbEntity
8
0
100
AcDbBlockEnd
0
BLOCK
5
74
330
73
100
AcDbEntity
8
0
100
AcDbBlockBegin
2
*D1
70
1
10
0
20
0
3
*D1
1

0
LINE
5
E0
100
AcDbEntity
8
1D
6
CONTINUOUS
62
7
370
0
100
AcDbLine
10
-0.65
20
216.2
11
0.65
21
216.2
0
SOLID
5
E1
100
AcDbEntity
8
1D
6
CONTINUOUS
62
7
370
0
100
AcDbTrace
10
-0.65
20
216.2
30
0
11
-0.6
21
216.208325693
31
0
12
-0.6
22
216.191674307
32
0
13
-0.6
23
216.191674307
33
0
0
SOLID
5
E2
100
AcDbEntity
8
1D
6
CONTINUOUS
62
7
370
0
100
AcDbTrace
10
0.65
20
216.2
30
0
11
0.6
21
216.191674307
31
0
12
0.6
22
216.208325693
32
0
13
0.6
23
216.208325693
33
0
0
MTEXT
5
E3
100
AcDbEntity
8
1D
6
CONTINUOUS
62
7
370
0
100
AcDbMText
10
2.2962127484e-18
20
216.2375
30
0
40
0.05
41
0.0666666666667
71
5
72
1
1
1.3
7
standard
210
0
220
0
230
1
50
0
73
2
44
1
0
LINE
5
E4
100
AcDbEntity
8
1D
6
CONTINUOUS
62
7
370
0
100
AcDbLine
10
-0.65
20
216.3875
11
-0.65
21
216.175
0
LINE
5
E5
100
AcDbEntity
8
1D
6
CONTINUOUS
62
7
370
0
100
AcDbLine
10
0.65
20
216.3875
11
0.65
21
216.175
0
ENDBLK
5
75
330
73
100
AcDbEntity
8
0
100
AcDbBlockEnd
0
BLOCK
5
77
330
76
100
AcDbEntity
8
0
100
AcDbBlockBegin
2
*D5
70
1
10
0
20
0
3
*D5
1

0
LINE
5
E6
100
AcDbEntity
8
1D
6
CONTINUOUS
62
7
370
0
100
AcDbLine
10
-1.3
20
217.05
11
-1.3
21
216.7
0
SOLID
5
E7
100
AcDbEntity
8
1D
6
CONTINUOUS
62
7
370
0
100
AcDbTrace
10
-1.3
20
217.05
30
0
11
-1.29167430684
21
217
31
0
12
-1.30832569316
22
217
32
0
13
-1.30832569316
23
217
33
0
0
SOLID
5
E8
100
AcDbEntity
8
1D
6
CONTINUOUS
62
7
370
0
100
AcDbTrace
10
-1.3
20
216.7
30
0
11
-1.30832569316
21
216.75
31
0
12
-1.29167430684
22
216.75
32
0
13
-1.29167430684
23
216.75
33
0
0
MTEXT
5
E9
100
AcDbEntity
8
1D
6
CONTINUOUS
62
7
370
0
100
AcDbMText
10
-1.3375
20
216.875
30
0
40
0.05
41
0.116666666667
71
5
72
1
1
0.35
7
standard
210
0
220
0
230
1
50
90
73
2
44
1
0
LINE
5
EA
100
AcDbEntity
8
1D
6
CONTINUOUS
62
7
370
0
100
AcDbLine
10
-1.0625
20
217.05
11
-1.325
21
217.05
0
LINE
5
EB
100
AcDbEntity
8
1D
6
CONTINUOUS
62
7
370
0
100
AcDbLine
10
-1.2625
20
216.7
11
-1.325
21
216.7
0
ENDBLK
5
78
330
76
100
AcDbEntity
8
0
100
AcDbBlockEnd
0
BLOCK
5
7A
330
79
100
AcDbEntity
8
0
100
AcDbBlockBegin
2
*D17
70
1
10
0
20
0
3
*D17
1

0
LINE
5
EC
100
AcDbEntity
8
3D
6
CONTINUOUS
62
7
370
0
100
AcDbLine
10
0.8
20
217.019
11
0.8
21
216.609
0
SOLID
5
ED
100
AcDbEntity
8
3D
6
CONTINUOUS
62
7
370
0
100
AcDbTrace
10
0.8
20
217.019
30
0
11
0.808325693155
21
216.969
31
0
12
0.791674306845
22
216.969
32
0
13
0.791674306845
23
216.969
33
0
0
SOLID
5
EE
100
AcDbEntity
8
3D
6
CONTINUOUS
62
7
370
0
100
AcDbTrace
10
0.8
20
216.609
30
0
11
0.791674306845
21
216.659
31
0
12
0.808325693155
22
216.659
32
0
13
0.808325693155
23
216.659
33
0
0
MTEXT
5
EF
100
AcDbEntity
8
3D
6
CONTINUOUS
62
7
370
0
100
AcDbMText
10
0.7625
20
216.814
30
0
40
0.05
41
0.111111111111
71
5
72
1
1
0.41
7
standard
210
0
220
0
230
1
50
90
73
2
44
1
0
LINE
5
F0
100
AcDbEntity
8
3D
6
CONTINUOUS
62
7
370
0
100
AcDbLine
10
0.709
20
217.019
11
0.825
21
217.019
0
LINE
5
F1
100
AcDbEntity
8
3D
6
CONTINUOUS
62
7
370
0
100
AcDbLine
10
0.709
20
216.609
11
0.825
21
216.609
0
ENDBLK
5
7B
330
79
100
AcDbEntity
8
0
100
AcDbBlockEnd
0
BLOCK
5
7D
330
7C
100
AcDbEntity
8
0
100
AcDbBlockBegin
2
*D16
70
1
10
0
20
0
3
*D16
1

0
LINE
5
F2
100
AcDbEntity
8
3D
6
CONTINUOUS
62
7
370
0
100
AcDbLine
10
-0.6965
20
216.5
11
0.6965
21
216.5
0
SOLID
5
F3
100
AcDbEntity
8
3D
6
CONTINUOUS
62
7
370
0
100
AcDbTrace
10
-0.6965
20
216.5
30
0
11
-0.6465
21
216.508325693
31
0
12
-0.6465
22
216.491674307
32
0
13
-0.6465
23
216.491674307
33
0
0
SOLID
5
F4
100
AcDbEntity
8
3D
6
CONTINUOUS
62
7
370
0
100
AcDbTrace
10
0.6965
20
216.5
30
0
11
0.6465
21
216.491674307
31
0
12
0.6465
22
216.508325693
32
0
13
0.6465
23
216.508325693
33
0
0
MTEXT
5
F5
100
AcDbEntity
8
3D
6
CONTINUOUS
62
7
370
0
100
AcDbMText
10
-1.08726089714e-16
20
216.5375
30
0
40
0.05
41
0.144444444444
71
5
72
1
1
1.393
7
standard
210
0
220
0
230
1
50
0
73
2
44
1
0
LINE
5
F6
100
AcDbEntity
8
3D
6
CONTINUOUS
62
7
370
0
100
AcDbLine
10
-0.6965
20
216.5965
11
-0.6965
21
216.475
0
LINE
5
F7
100
AcDbEntity
8
3D
6
CONTINUOUS
62
7
370
0
100
AcDbLine
10
0.6965
20
216.5965
11
0.6965
21
216.475
0
ENDBLK
5
7E
330
7C
100
AcDbEntity
8
0
100
AcDbBlockEnd
0
BLOCK
5
80
330
7F
100
AcDbEntity
8
0
100
AcDbBlockBegin
2
*D18
70
1
10
0
20
0
3
*D18
1

0
LINE
5
F8
100
AcDbEntity
8
3D
6
CONTINUOUS
62
7
370
0
100
AcDbLine
10
0.4
20
217.019
11
0.4
21
216.685
0
SOLID
5
F9
100
AcDbEntity
8
3D
6
CONTINUOUS
62
7
370
0
100
AcDbTrace
10
0.4
20
217.019
30
0
11
0.408325693155
21
216.969
31
0
12
0.391674306845
22
216.969
32
0
13
0.391674306845
23
216.969
33
0
0
SOLID
5
FA
100
AcDbEntity
8
3D
6
CONTINUOUS
62
7
370
0
100
AcDbTrace
10
0.4
20
216.685
30
0
11
0.391674306845
21
216.735
31
0
12
0.408325693155
22
216.735
32
0
13
0.408325693155
23
216.735
33
0
0
MTEXT
5
FB
100
AcDbEntity
8
3D
6
CONTINUOUS
62
7
370
0
100
AcDbMText
10
0.3625
20
216.852
30
0
40
0.05
41
0.161111111111
71
5
72
1
1
0.334
7
standard
210
0
220
0
230
1
50
90
73
2
44
1
0
LINE
5
FC
100
AcDbEntity
8
3D
6
CONTINUOUS
62
7
370
0
100
AcDbLine
10
0.455
20
217.019
11
0.375
21
217.019
0
LINE
5
FD
100
AcDbEntity
8
3D
6
CONTINUOUS
62
7
370
0
100
AcDbLine
10
0.455
20
216.685
11
0.375
21
216.685
0
ENDBLK
5
81
330
7F
100
AcDbEntity
8
0
100
AcDbBlockEnd
0
BLOCK
5
83
330
82
100
AcDbEntity
8
0
100
AcDbBlockBegin
2
*D12
70
1
10
0
20
0
3
*D12
1

0
LINE
5
FE
100
AcDbEntity
8
2D
6
CONTINUOUS
62
7
370
0
100
AcDbLine
10
1.29
20
217.11385889
11
1.29
21
217.31385889
0
SOLID
5
FF
100
AcDbEntity
8
2D
6
CONTINUOUS
62
7
370
0
100
AcDbTrace
10
1.29
20
217.11385889
30
0
11
1.28167430684
21
217.16385889
31
0
12
1.29832569316
22
217.16385889
32
0
13
1.29832569316
23
217.16385889
33
0
0
SOLID
5
100
100
AcDbEntity
8
2D
6
CONTINUOUS
62
7
370
0
100
AcDbTrace
10
1.29
20
217.31385889
30
0
11
1.29832569316
21
217.26385889
31
0
12
1.28167430684
22
217.26385889
32
0
13
1.28167430684
23
217.26385889
33
0
0
MTEXT
5
101
100
AcDbEntity
8
2D
6
CONTINUOUS
62
7
370
0
100
AcDbMText
10
1.2525
20
217.21385889
30
0
40
0.05
41
0.0777777777778
71
5
72
1
1
0.2
7
standard
210
0
220
0
230
1
50
90
73
2
44
1
0
LINE
5
102
100
AcDbEntity
8
2D
6
CONTINUOUS
62
7
370
0
100
AcDbLine
10
1.21142944522
20
217.11385889
11
1.315
21
217.11385889
0
LINE
5
103
100
AcDbEntity
8
2D
6
CONTINUOUS
62
7
370
0
100
AcDbLine
10
1.21142944522
20
217.31385889
11
1.315
21
217.31385889
0
ENDBLK
5
84
330
82
100
AcDbEntity
8
0
100
AcDbBlockEnd
0
BLOCK
5
86
330
85
100
AcDbEntity
8
0
100
AcDbBlockBegin
2
*D4
70
1
10
0
20
0
3
*D4
1

0
LINE
5
104
100
AcDbEntity
8
1D
6
CONTINUOUS
62
7
370
0
100
AcDbLine
10
1.05
20
217.2
11
1.25
21
217.2
0
SOLID
5
105
100
AcDbEntity
8
1D
6
CONTINUOUS
62
7
370
0
100
AcDbTrace
10
1.05
20
217.2
30
0
11
1.1
21
217.208325693
31
0
12
1.1
22
217.191674307
32
0
13
1.1
23
217.191674307
33
0
0
SOLID
5
106
100
AcDbEntity
8
1D
6
CONTINUOUS
62
7
370
0
100
AcDbTrace
10
1.25
20
217.2
30
0
11
1.2
21
217.191674307
31
0
12
1.2
22
217.208325693
32
0
13
1.2
23
217.208325693
33
0
0
MTEXT
5
107
100
AcDbEntity
8
1D
6
CONTINUOUS
62
7
370
0
100
AcDbMText
10
1.15
20
217.2375
30
0
40
0.05
41
0.0777777777778
71
5
72
1
1
0.2
7
standard
210
0
220
0
230
1
50
0
73
2
44
1
0
LINE
5
108
100
AcDbEntity
8
1D
6
CONTINUOUS
62
7
370
0
100
AcDbLine
10
1.05
20
217.0625
11
1.05
21
217.225
0
LINE
5
109
100
AcDbEntity
8
1D
6
CONTINUOUS
62
7
370
0
100
AcDbLine
10
1.25
20
216.7125
11
1.25
21
217.225
0
ENDBLK
5
87
330
85
100
AcDbEntity
8
0
100
AcDbBlockEnd
0
BLOCK
5
89
330
88
100
AcDbEntity
8
0
100
AcDbBlockBegin
2
*D22
70
1
10
0
20
0
3
*D22
1

0
LINE
5
10A
100
AcDbEntity
8
5D
6
CONTINUOUS
62
7
370
0
100
AcDbLine
10
-1.3205
20
216.5
11
-1.0015
21
216.5
0
SOLID
5
10B
100
AcDbEntity
8
5D
6
CONTINUOUS
62
7
370
0
100
AcDbTrace
10
-1.3205
20
216.5
30
0
11
-1.2705
21
216.508325693
31
0
12
-1.2705
22
216.491674307
32
0
13
-1.2705
23
216.491674307
33
0
0
SOLID
5
10C
100
AcDbEntity
8
5D
6
CONTINUOUS
62
7
370
0
100
AcDbTrace
10
-1.0015
20
216.5
30
0
11
-1.0515
21
216.491674307
31
0
12
-1.0515
22
216.508325693
32
0
13
-1.0515
23
216.508325693
33
0
0
MTEXT
5
10D
100
AcDbEntity
8
5D
6
CONTINUOUS
62
7
370
0
100
AcDbMText
10
-1.161
20
216.5375
30
0
40
0.05
41
0.144444444444
71
5
72
1
1
0.319
7
standard
210
0
220
0
230
1
50
0
73
2
44
1
0
LINE
5
10E
100
AcDbEntity
8
5D
6
CONTINUOUS
62
7
370
0
100
AcDbLine
10
-1.3205
20
216.6875
11
-1.3205
21
216.475
0
LINE
5
10F
100
AcDbEntity
8
5D
6
CONTINUOUS
62
7
370
0
100
AcDbLine
10
-1.0015
20
217.0065
11
-1.0015
21
216.475
0
ENDBLK
5
8A
330
88
100
AcDbEntity
8
0
100
AcDbBlockEnd
0
BLOCK
5
8C
330
8B
100
AcDbEntity
8
0
100
AcDbBlockBegin
2
*D10
70
1
10
0
20
0
3
*D10
1

0
LINE
5
110
100
AcDbEntity
8
2D
6
CONTINUOUS
62
7
370
0
100
AcDbLine
10
-2.0125
20
216.7
11
-1.4234227483
21
216.7
0
LINE
5
111
100
AcDbEntity
8
2D
6
CONTINUOUS
62
7
370
0
100
AcDbLine
10
-1.25209016994
20
217.42018034
11
-1.129659478
21
217.175318956
0
ARC
5
112
100
AcDbEntity
8
2D
6
CONTINUOUS
62
7
370
0
100
AcDbCircle
10
-0.892
20
216.7
40
0.506422748304
100
AcDbArc
50
116.565051177
51
180
0
SOLID
5
113
100
AcDbEntity
8
2D
6
CONTINUOUS
62
7
370
0
100
AcDbTrace
10
-1.3984227483
20
216.7
30
0
11
-1.40427100758
21
216.750349926
31
0
12
-1.38763990677
22
216.749528249
32
0
13
-1.38763990677
23
216.749528249
33
0
0
SOLID
5
114
100
AcDbEntity
8
2D
6
CONTINUOUS
62
7
370
0
100
AcDbTrace
10
-1.11847913811
20
217.152958276
30
0
11
-1.15795631782
21
217.121164103
31
0
12
-1.16612890189
22
217.135671947
32
0
13
-1.16612890189
23
217.135671947
33
0
0
MTEXT
5
115
100
AcDbEntity
8
2D
6
CONTINUOUS
62
7
370
0
100
AcDbMText
10
-1.33342205532
20
216.972813834
30
0
40
0.05
41
0.194444444444
71
8
72
1
1
63.43%%D
7
standard
210
0
220
0
230
1
50
418.282525589
73
2
44
1
0
ENDBLK
5
8D
330
8B
100
AcDbEntity
8
0
100
AcDbBlockEnd
0
BLOCK
5
8F
330
8E
100
AcDbEntity
8
0
100
AcDbBlockBegin
2
*D19
70
1
10
0
20
0
3
*D19
1

0
LINE
5
116
100
AcDbEntity
8
4D
6
CONTINUOUS
62
7
370
0
100
AcDbLine
10
-0.55
20
217.129
11
-0.55
21
216.919
0
SOLID
5
117
100
AcDbEntity
8
4D
6
CONTINUOUS
62
7
370
0
100
AcDbTrace
10
-0.55
20
217.029
30
0
11
-0.558325693155
21
217.079
31
0
12
-0.541674306845
22
217.079
32
0
13
-0.541674306845
23
217.079
33
0
0
SOLID
5
118
100
AcDbEntity
8
4D
6
CONTINUOUS
62
7
370
0
100
AcDbTrace
10
-0.55
20
217.019
30
0
11
-0.541674306845
21
216.969
31
0
12
-0.558325693155
22
216.969
32
0
13
-0.558325693155
23
216.969
33
0
0
MTEXT
5
119
100
AcDbEntity
8
4D
6
CONTINUOUS
62
7
370
0
100
AcDbMText
10
-0.5875
20
217.094277778
30
0
40
0.05
41
0.105555555556
71
5
72
1
1
0.01
7
standard
210
0
220
0
230
1
50
90
73
2
44
1
0
LINE
5
11A
100
AcDbEntity
8
4D
6
CONTINUOUS
62
7
370
0
100
AcDbLine
10
-0.544
20
217.029
11
-0.575
21
217.029
0
LINE
5
11B
100
AcDbEntity
8
4D
6
CONTINUOUS
62
7
370
0
100
AcDbLine
10
-0.544
20
217.019
11
-0.575
21
217.019
0
ENDBLK
5
90
330
8E
100
AcDbEntity
8
0
100
AcDbBlockEnd
0
BLOCK
5
92
330
91
100
AcDbEntity
8
0
100
AcDbBlockBegin
2
*D15
70
1
10
0
20
0
3
*D15
1

0
LINE
5
11C
100
AcDbEntity
8
3D
6
CONTINUOUS
62
7
370
0
100
AcDbLine
10
-0.8465
20
216.5
11
-0.6965
21
216.5
0
SOLID
5
11D
100
AcDbEntity
8
3D
6
CONTINUOUS
62
7
370
0
100
AcDbTrace
10
-0.8465
20
216.5
30
0
11
-0.7965
21
216.508325693
31
0
12
-0.7965
22
216.491674307
32
0
13
-0.7965
23
216.491674307
33
0
0
SOLID
5
11E
100
AcDbEntity
8
3D
6
CONTINUOUS
62
7
370
0
100
AcDbTrace
10
-0.6965
20
216.5
30
0
11
-0.7465
21
216.491674307
31
0
12
-0.7465
22
216.508325693
32
0
13
-0.7465
23
216.508325693
33
0
0
MTEXT
5
11F
100
AcDbEntity
8
3D
6
CONTINUOUS
62
7
370
0
100
AcDbMText
10
-0.7715
20
216.5375
30
0
40
0.05
41
0.105555555556
71
5
72
1
1
0.15
7
standard
210
0
220
0
230
1
50
0
73
2
44
1
0
LINE
5
120
100
AcDbEntity
8
3D
6
CONTINUOUS
62
7
370
0
100
AcDbLine
10
-0.8465
20
216.5965
11
-0.8465
21
216.475
0
LINE
5
121
100
AcDbEntity
8
3D
6
CONTINUOUS
62
7
370
0
100
AcDbLine
10
-0.6965
20
216.5965
11
-0.6965
21
216.475
0
ENDBLK
5
93
330
91
100
AcDbEntity
8
0
100
AcDbBlockEnd
0
BLOCK
5
95
330
94
100
AcDbEntity
8
0
100
AcDbBlockBegin
2
*D23
70
1
10
0
20
0
3
*D23
1

0
LINE
5
122
100
AcDbEntity
8
5D
6
CONTINUOUS
62
7
370
0
100
AcDbLine
10
-1.429
20
216.7
11
-1.429
21
217.019
0
SOLID
5
123
100
AcDbEntity
8
5D
6
CONTINUOUS
62
7
370
0
100
AcDbTrace
10
-1.429
20
216.7
30
0
11
-1.43732569316
21
216.75
31
0
12
-1.42067430684
22
216.75
32
0
13
-1.42067430684
23
216.75
33
0
0
SOLID
5
124
100
AcDbEntity
8
5D
6
CONTINUOUS
62
7
370
0
100
AcDbTrace
10
-1.429
20
217.019
30
0
11
-1.42067430684
21
216.969
31
0
12
-1.43732569316
22
216.969
32
0
13
-1.43732569316
23
216.969
33
0
0
MTEXT
5
125
100
AcDbEntity
8
5D
6
CONTINUOUS
62
7
370
0
100
AcDbMText
10
-1.4665
20
216.8595
30
0
40
0.05
41
0.144444444444
71
5
72
1
1
0.319
7
standard
210
0
220
0
230
1
50
90
73
2
44
1
0
LINE
5
126
100
AcDbEntity
8
5D
6
CONTINUOUS
62
7
370
0
100
AcDbLine
10
-1.333
20
216.7
11
-1.454
21
216.7
0
LINE
5
127
100
AcDbEntity
8
5D
6
CONTINUOUS
62
7
370
0
100
AcDbLine
10
-1.014
20
217.019
11
-1.454
21
217.019
0
ENDBLK
5
96
330
94
100
AcDbEntity
8
0
100
AcDbBlockEnd
0
BLOCK
5
98
330
97
100
AcDbEntity
8
0
100
AcDbBlockBegin
2
*D8
70
1
10
0
20
0
3
*D8
1

0
LINE
5
128
100
AcDbEntity
8
1D
6
CONTINUOUS
62
7
370
0
100
AcDbLine
10
0.65
20
216.2
11
0.85
21
216.2
0
SOLID
5
129
100
AcDbEntity
8
1D
6
CONTINUOUS
62
7
370
0
100
AcDbTrace
10
0.65
20
216.2
30
0
11
0.7
21
216.208325693
31
0
12
0.7
22
216.191674307
32
0
13
0.7
23
216.191674307
33
0
0
SOLID
5
12A
100
AcDbEntity
8
1D
6
CONTINUOUS
62
7
370
0
100
AcDbTrace
10
0.85
20
216.2
30
0
11
0.8
21
216.191674307
31
0
12
0.8
22
216.208325693
32
0
13
0.8
23
216.208325693
33
0
0
MTEXT
5
12B
100
AcDbEntity
8
1D
6
CONTINUOUS
62
7
370
0
100
AcDbMText
10
0.75
20
216.2375
30
0
40
0.05
41
0.0777777777778
71
5
72
1
1
0.2
7
standard
210
0
220
0
230
1
50
0
73
2
44
1
0
LINE
5
12C
100
AcDbEntity
8
1D
6
CONTINUOUS
62
7
370
0
100
AcDbLine
10
0.65
20
216.3875
11
0.65
21
216.175
0
LINE
5
12D
100
AcDbEntity
8
1D
6
CONTINUOUS
62
7
370
0
100
AcDbLine
10
0.85
20
217.0375
11
0.85
21
216.175
0
ENDBLK
5
99
330
97
100
AcDbEntity
8
0
100
AcDbBlockEnd
0
BLOCK
5
9B
330
9A
100
AcDbEntity
8
0
100
AcDbBlockBegin
2
*D20
70
1
10
0
20
0
3
*D20
1

0
LINE
5
12E
100
AcDbEntity
8
4D
6
CONTINUOUS
62
7
370
0
100
AcDbLine
10
-0.6315
20
216.94
11
-0.3675
21
216.94
0
SOLID
5
12F
100
AcDbEntity
8
4D
6
CONTINUOUS
62
7
370
0
100
AcDbTrace
10
-0.5315
20
216.94
30
0
11
-0.5815
21
216.931674307
31
0
12
-0.5815
22
216.948325693
32
0
13
-0.5815
23
216.948325693
33
0
0
SOLID
5
130
100
AcDbEntity
8
4D
6
CONTINUOUS
62
7
370
0
100
AcDbTrace
10
-0.4675
20
216.94
30
0
11
-0.4175
21
216.948325693
31
0
12
-0.4175
22
216.931674307
32
0
13
-0.4175
23
216.931674307
33
0
0
MTEXT
5
131
100
AcDbEntity
8
4D
6
CONTINUOUS
62
7
370
0
100
AcDbMText
10
-0.374444444444
20
216.9775
30
0
40
0.05
41
0.161111111111
71
5
72
1
1
0.064
7
standard
210
0
220
0
230
1
50
0
73
2
44
1
0
LINE
5
132
100
AcDbEntity
8
4D
6
CONTINUOUS
62
7
370
0
100
AcDbLine
10
-0.5315
20
217.0065
11
-0.5315
21
216.915
0
LINE
5
133
100
AcDbEntity
8
4D
6
CONTINUOUS
62
7
370
0
100
AcDbLine
10
-0.4675
20
217.0065
11
-0.4675
21
216.915
0
ENDBLK
5
9C
330
9A
100
AcDbEntity
8
0
100
AcDbBlockEnd
0
BLOCK
5
9E
330
9D
100
AcDbEntity
8
0
100
AcDbBlockBegin
2
*D6
70
1
10
0
20
0
3
*D6
1

0
LINE
5
134
100
AcDbEntity
8
1D
6
CONTINUOUS
62
7
370
0
100
AcDbLine
10
-0.9
20
217.05
11
-0.9
21
216.4
0
SOLID
5
135
100
AcDbEntity
8
1D
6
CONTINUOUS
62
7
370
0
100
AcDbTrace
10
-0.9
20
217.05
30
0
11
-0.891674306845
21
217
31
0
12
-0.908325693155
22
217
32
0
13
-0.908325693155
23
217
33
0
0
SOLID
5
136
100
AcDbEntity
8
1D
6
CONTINUOUS
62
7
370
0
100
AcDbTrace
10
-0.9
20
216.4
30
0
11
-0.908325693155
21
216.45
31
0
12
-0.891674306845
22
216.45
32
0
13
-0.891674306845
23
216.45
33
0
0
MTEXT
5
137
100
AcDbEntity
8
1D
6
CONTINUOUS
62
7
370
0
100
AcDbMText
10
-0.9375
20
216.725
30
0
40
0.05
41
0.116666666667
71
5
72
1
1
0.65
7
standard
210
0
220
0
230
1
50
90
73
2
44
1
0
LINE
5
138
100
AcDbEntity
8
1D
6
CONTINUOUS
62
7
370
0
100
AcDbLine
10
-0.8625
20
217.05
11
-0.925
21
217.05
0
LINE
5
139
100
AcDbEntity
8
1D
6
CONTINUOUS
62
7
370
0
100
AcDbLine
10
-0.6625
20
216.4
11
-0.925
21
216.4
0
ENDBLK
5
9F
330
9D
100
AcDbEntity
8
0
100
AcDbBlockEnd
0
ENDSEC
0
SECTION
2
ENTITIES
0
HATCH
5
13A
100
AcDbEntity
8
3
6
ByLayer
62
256
370
-1
100
AcDbHatch
10
0
20
0
30
0
210
0
220
0
230
1
2
SOLID
70
1
71
0
91
1
92
0
93
8
72
1
10
-0.6965
20
216.609
11
-0.6965
21
217.019
72
1
10
-0.6965
20
217.019
11
-0.4675
21
217.019
72
1
10
-0.4675
20
217.019
11
-0.4675
21
216.685
72
1
10
-0.4675
20
216.685
11
0.4675
21
216.685
72
1
10
0.4675
20
216.685
11
0.4675
21
217.019
72
1
10
0.4675
20
217.019
11
0.6965
21
217.019
72
1
10
0.6965
20
217.019
11
0.6965
21
216.609
72
1
10
0.6965
20
216.609
11
-0.6965
21
216.609
97
0
75
0
76
1
98
0
0
HATCH
5
13B
100
AcDbEntity
8
4
6
ByLayer
62
256
370
-1
100
AcDbHatch
10
0
20
0
30
0
210
0
220
0
230
1
2
SOLID
70
1
71
0
91
1
92
0
93
13
72
1
10
0
20
216.685
11
-0.4675
21
216.685
72
1
10
-0.4675
20
216.685
11
-0.4675
21
217.019
72
1
10
-0.4675
20
217.019
11
-0.5315
21
217.019
72
1
10
-0.5315
20
217.019
11
-0.5315
21
217.029
72
1
10
-0.5315
20
217.029
11
-0.4575
21
217.029
72
1
10
-0.4575
20
217.029
11
-0.4575
21
216.695
72
1
10
-0.4575
20
216.695
11
0.4575
21
216.695
72
1
10
0.4575
20
216.695
11
0.4575
21
217.029
72
1
10
0.4575
20
217.029
11
0.5315
21
217.029
72
1
10
0.5315
20
217.029
11
0.5315
21
217.019
72
1
10
0.5315
20
217.019
11
0.4675
21
217.019
72
1
10
0.4675
20
217.019
11
0.4675
21
216.685
72
1
10
0.4675
20
216.685
11
0
21
216.685
97
0
75
0
76
1
98
0
0
LINE
5
13C
100
AcDbEntity
8
1
6
ByLayer
62
256
370
-1
100
AcDbLine
10
-2
20
216.7
11
-1.25
21
216.7
0
LINE
5
13D
100
AcDbEntity
8
1
6
ByLayer
62
256
370
-1
100
AcDbLine
10
-1.25
20
216.7
11
-1.05
21
217.05
0
LINE
5
13E
100
AcDbEntity
8
1
6
ByLayer
62
256
370
-1
100
AcDbLine
10
-1.05
20
217.05
11
-0.85
21
217.05
0
LINE
5
13F
100
AcDbEntity
8
1
6
ByLayer
62
256
370
-1
100
AcDbLine
10
-0.85
20
217.05
11
-0.65
21
216.4
0
LINE
5
140
100
AcDbEntity
8
1
6
ByLayer
62
256
370
-1
100
AcDbLine
10
-0.65
20
216.4
11
0
21
216.4
0
LINE
5
141
100
AcDbEntity
8
1
6
ByLayer
62
256
370
-1
100
AcDbLine
10
0
20
216.4
11
0.65
21
216.4
0
LINE
5
142
100
AcDbEntity
8
1
6
ByLayer
62
256
370
-1
100
AcDbLine
10
0.65
20
216.4
11
0.85
21
217.05
0
LINE
5
143
100
AcDbEntity
8
1
6
ByLayer
62
256
370
-1
100
AcDbLine
10
0.85
20
217.05
11
1.05
21
217.05
0
LINE
5
144
100
AcDbEntity
8
1
6
ByLayer
62
256
370
-1
100
AcDbLine
10
1.05
20
217.05
11
1.25
21
216.7
0
LINE
5
145
100
AcDbEntity
8
1
6
ByLayer
62
256
370
-1
100
AcDbLine
10
1.25
20
216.7
11
2
21
216.7
0
LINE
5
146
100
AcDbEntity
8
2
6
ByLayer
62
256
370
-1
100
AcDbLine
10
-1.2465
20
217.409
11
-0.8465
21
216.609
0
LINE
5
147
100
AcDbEntity
8
2
6
ByLayer
62
256
370
-1
100
AcDbLine
10
-0.8465
20
216.609
11
0
21
216.609
0
LINE
5
148
100
AcDbEntity
8
2
6
ByLayer
62
256
370
-1
100
AcDbLine
10
0
20
216.609
11
0.8465
21
216.609
0
LINE
5
149
100
AcDbEntity
8
2
6
ByLayer
62
256
370
-1
100
AcDbLine
10
0.8465
20
216.609
11
1.2465
21
217.409
0
LINE
5
14A
100
AcDbEntity
8
3
6
ByLayer
62
256
370
-1
100
AcDbLine
10
-0.6965
20
216.609
11
-0.6965
21
217.019
0
LINE
5
14B
100
AcDbEntity
8
3
6
ByLayer
62
256
370
-1
100
AcDbLine
10
-0.6965
20
217.019
11
-0.4675
21
217.019
0
LINE
5
14C
100
AcDbEntity
8
3
6
ByLayer
62
256
370
-1
100
AcDbLine
10
-0.4675
20
217.019
11
-0.4675
21
216.685
0
LINE
5
14D
100
AcDbEntity
8
3
6
ByLayer
62
256
370
-1
100
AcDbLine
10
-0.4675
20
216.685
11
0.4675
21
216.685
0
LINE
5
14E
100
AcDbEntity
8
3
6
ByLayer
62
256
370
-1
100
AcDbLine
10
0.4675
20
216.685
11
0.4675
21
217.019
0
LINE
5
14F
100
AcDbEntity
8
3
6
ByLayer
62
256
370
-1
100
AcDbLine
10
0.4675
20
217.019
11
0.6965
21
217.019
0
LINE
5
150
100
AcDbEntity
8
3
6
ByLayer
62
256
370
-1
100
AcDbLine
10
0.6965
20
217.019
11
0.6965
21
216.609
0
LINE
5
151
100
AcDbEntity
8
3
6
ByLayer
62
256
370
-1
100
AcDbLine
10
0.6965
20
216.609
11
-0.6965
21
216.609
0
LINE
5
152
100
AcDbEntity
8
4
6
ByLayer
62
256
370
-1
100
AcDbLine
10
0
20
216.685
11
-0.4675
21
216.685
0
LINE
5
153
100
AcDbEntity
8
4
6
ByLayer
62
256
370
-1
100
AcDbLine
10
-0.4675
20
216.685
11
-0.4675
21
217.019
0
LINE
5
154
100
AcDbEntity
8
4
6
ByLayer
62
256
370
-1
100
AcDbLine
10
-0.4675
20
217.019
11
-0.5315
21
217.019
0
LINE
5
155
100
AcDbEntity
8
4
6
ByLayer
62
256
370
-1
100
AcDbLine
10
-0.5315
20
217.019
11
-0.5315
21
217.029
0
LINE
5
156
100
AcDbEntity
8
4
6
ByLayer
62
256
370
-1
100
AcDbLine
10
-0.5315
20
217.029
11
-0.4575
21
217.029
0
LINE
5
157
100
AcDbEntity
8
4
6
ByLayer
62
256
370
-1
100
AcDbLine
10
-0.4575
20
217.029
11
-0.4575
21
216.695
0
LINE
5
158
100
AcDbEntity
8
4
6
ByLayer
62
256
370
-1
100
AcDbLine
10
-0.4575
20
216.695
11
0.4575
21
216.695
0
LINE
5
159
100
AcDbEntity
8
4
6
ByLayer
62
256
370
-1
100
AcDbLine
10
0.4575
20
216.695
11
0.4575
21
217.029
0
LINE
5
15A
100
AcDbEntity
8
4
6
ByLayer
62
256
370
-1
100
AcDbLine
10
0.4575
20
217.029
11
0.5315
21
217.029
0
LINE
5
15B
100
AcDbEntity
8
4
6
ByLayer
62
256
370
-1
100
AcDbLine
10
0.5315
20
217.029
11
0.5315
21
217.019
0
LINE
5
15C
100
AcDbEntity
8
4
6
ByLayer
62
256
370
-1
100
AcDbLine
10
0.5315
20
217.019
11
0.4675
21
217.019
0
LINE
5
15D
100
AcDbEntity
8
4
6
ByLayer
62
256
370
-1
100
AcDbLine
10
0.4675
20
217.019
11
0.4675
21
216.685
0
LINE
5
15E
100
AcDbEntity
8
4
6
ByLayer
62
256
370
-1
100
AcDbLine
10
0.4675
20
216.685
11
0
21
216.685
0
MTEXT
5
15F
100
AcDbEntity
8
1
6
ByLayer
62
256
370
-1
100
AcDbMText
10
0
20
211.4
30
0
40
1
41
0
71
8
72
5
1

7
iso
210
0
220
0
230
1
50
0
73
1
44
0.96
0
MTEXT
5
160
100
AcDbEntity
8
2
6
ByLayer
62
256
370
-1
100
AcDbMText
10
0
20
211.609
30
0
40
1
41
0
71
8
72
5
1

7
iso
210
0
220
0
230
1
50
0
73
1
44
0.96
0
MTEXT
5
161
100
AcDbEntity
8
3
6
ByLayer
62
256
370
-1
100
AcDbMText
10
0
20
211.609
30
0
40
1
41
0
71
8
72
5
1

7
iso
210
0
220
0
230
1
50
0
73
1
44
0.96
0
MTEXT
5
162
100
AcDbEntity
8
4
6
ByLayer
62
256
370
-1
100
AcDbMText
10
0
20
211.685
30
0
40
1
41
0
71
8
72
5
1

7
iso
210
0
220
0
230
1
50
0
73
1
44
0.96
0
MTEXT
5
163
100
AcDbEntity
8
5
6
ByLayer
62
256
370
-1
100
AcDbMText
10
-1.23375
20
211.7
30
0
40
1
41
0
71
8
72
5
1

7
iso
210
0
220
0
230
1
50
0
73
1
44
0.96
0
MTEXT
5
164
100
AcDbEntity
8
5
6
ByLayer
62
256
370
-1
100
AcDbMText
10
1.23375
20
211.7
30
0
40
1
41
0
71
8
72
5
1

7
iso
210
0
220
0
230
1
50
0
73
1
44
0.96
0
DIMENSION
5
165
100
AcDbEntity
8
1D
6
ByLayer
62
256
370
-1
100
AcDbDimension
2
*D1
10
0.65
20
216.2
30
0
11
2.2962127484e-18
21
216.2375
31
0
70
32
71
5
72
0
3
Standard
53
0
210
0
220
0
230
1
100
AcDbAlignedDimension
13
-0.65
23
216.4
33
0
14
0.65
24
216.4
34
0
100
AcDbRotatedDimension
0
DIMENSION
5
166
100
AcDbEntity
8
1D
6
ByLayer
62
256
370
-1
100
AcDbDimension
2
*D2
10
0.85
20
217.2
30
0
11
2.2962127484e-18
21
217.2375
31
0
70
32
71
5
72
0
3
Standard
53
0
210
0
220
0
230
1
100
AcDbAlignedDimension
13
-0.85
23
217.05
33
0
14
0.85
24
217.05
34
0
100
AcDbRotatedDimension
0
DIMENSION
5
167
100
AcDbEntity
8
1D
6
ByLayer
62
256
370
-1
100
AcDbDimension
2
*D3
10
1.05
20
217.2
30
0
11
0.95
21
217.2375
31
0
70
32
71
5
72
0
3
Standard
53
0
210
0
220
0
230
1
100
AcDbAlignedDimension
13
0.85
23
217.05
33
0
14
1.05
24
217.05
34
0
100
AcDbRotatedDimension
0
DIMENSION
5
168
100
AcDbEntity
8
1D
6
ByLayer
62
256
370
-1
100
AcDbDimension
2
*D4
10
1.25
20
217.2
30
0
11
1.15
21
217.2375
31
0
70
32
71
5
72
0
3
Standard
53
0
210
0
220
0
230
1
100
AcDbAlignedDimension
13
1.05
23
217.05
33
0
14
1.25
24
216.7
34
0
100
AcDbRotatedDimension
0
DIMENSION
5
169
100
AcDbEntity
8
1D
6
ByLayer
62
256
370
-1
100
AcDbDimension
2
*D5
10
-1.3
20
216.7
30
0
11
-1.3375
21
216.875
31
0
70
32
71
5
72
0
3
Standard
53
0
210
0
220
0
230
1
100
AcDbAlignedDimension
13
-1.05
23
217.05
33
0
14
-1.25
24
216.7
34
0
50
90
100
AcDbRotatedDimension
0
DIMENSION
5
16A
100
AcDbEntity
8
1D
6
ByLayer
62
256
370
-1
100
AcDbDimension
2
*D6
10
-0.9
20
216.4
30
0
11
-0.9375
21
216.725
31
0
70
32
71
5
72
0
3
Standard
53
0
210
0
220
0
230
1
100
AcDbAlignedDimension
13
-0.85
23
217.05
33
0
14
-0.65
24
216.4
34
0
50
90
100
AcDbRotatedDimension
0
DIMENSION
5
16B
100
AcDbEntity
8
1D
6
ByLayer
62
256
370
-1
100
AcDbDimension
2
*D7
10
-1.3
20
216.4
30
0
11
-1.3375
21
216.55
31
0
70
32
71
5
72
0
3
Standard
53
0
210
0
220
0
230
1
100
AcDbAlignedDimension
13
-1.25
23
216.7
33
0
14
-0.65
24
216.4
34
0
50
90
100
AcDbRotatedDimension
0
DIMENSION
5
16C
100
AcDbEntity
8
1D
6
ByLayer
62
256
370
-1
100
AcDbDimension
2
*D8
10
0.85
20
216.2
30
0
11
0.75
21
216.2375
31
0
70
32
71
5
72
0
3
Standard
53
0
210
0
220
0
230
1
100
AcDbAlignedDimension
13
0.65
23
216.4
33
0
14
0.85
24
217.05
34
0
100
AcDbRotatedDimension
0
DIMENSION
5
16D
100
AcDbEntity
8
2D
6
ByLayer
62
256
370
-1
100
AcDbDimension
2
*D9
10
0.8465
20
216.3
30
0
11
2.2962127484e-18
21
216.3375
31
0
70
32
71
5
72
0
3
Standard
53
0
210
0
220
0
230
1
100
AcDbAlignedDimension
13
-0.8465
23
216.609
33
0
14
0.8465
24
216.609
34
0
100
AcDbRotatedDimension
0
DIMENSION
5
16E
100
AcDbEntity
8
2D
6
ByLayer
62
256
370
-1
100
AcDbDimension
2
*D10
10
-1.2465
20
217.409
30
0
11
0
21
0
31
0
70
34
71
5
72
0
3
Standard
53
0
210
0
220
0
230
1
100
AcDb2LineAngularDimension
13
-1.25
23
216.7
33
0
14
-2
24
216.7
34
0
15
-0.8465
25
216.609
35
0
16
-1.3
26
217
36
0
0
LINE
5
16F
100
AcDbEntity
8
2D
6
ByLayer
62
256
370
-1
100
AcDbLine
10
1.09892944522
20
217.11385889
11
1.19892944522
21
217.11385889
0
LINE
5
170
100
AcDbEntity
8
2D
6
ByLayer
62
256
370
-1
100
AcDbLine
10
1.19892944522
20
217.11385889
11
1.19892944522
21
217.353633701
0
DIMENSION
5
171
100
AcDbEntity
8
2D
6
ByLayer
62
256
370
-1
100
AcDbDimension
2
*D11
10
1.19892944522
20
217.01
30
0
11
1.14892944522
21
217.0475
31
0
70
32
71
5
72
0
3
Standard
53
0
210
0
220
0
230
1
100
AcDbAlignedDimension
13
1.09892944522
23
217.11385889
33
0
14
1.19892944522
24
217.11385889
34
0
100
AcDbRotatedDimension
0
DIMENSION
5
172
100
AcDbEntity
8
2D
6
ByLayer
62
256
370
-1
100
AcDbDimension
2
*D12
10
1.29
20
217.31385889
30
0
11
1.2525
21
217.21385889
31
0
70
32
71
5
72
0
3
Standard
53
0
210
0
220
0
230
1
100
AcDbAlignedDimension
13
1.19892944522
23
217.11385889
33
0
14
1.19892944522
24
217.31385889
34
0
50
90
100
AcDbRotatedDimension
0
DIMENSION
5
173
100
AcDbEntity
8
3D
6
ByLayer
62
256
370
-1
100
AcDbDimension
2
*D13
10
-0.4675
20
217.1
30
0
11
-0.582
21
217.1375
31
0
70
32
71
5
72
0
3
Standard
53
0
210
0
220
0
230
1
100
AcDbAlignedDimension
13
-0.6965
23
217.019
33
0
14
-0.4675
24
217.019
34
0
100
AcDbRotatedDimension
0
DIMENSION
5
174
100
AcDbEntity
8
3D
6
ByLayer
62
256
370
-1
100
AcDbDimension
2
*D14
10
0.4675
20
217.1
30
0
11
2.2962127484e-18
21
217.1375
31
0
70
32
71
5
72
0
3
Standard
53
0
210
0
220
0
230
1
100
AcDbAlignedDimension
13
-0.4675
23
217.019
33
0
14
0.4675
24
217.019
34
0
100
AcDbRotatedDimension
0
DIMENSION
5
175
100
AcDbEntity
8
3D
6
ByLayer
62
256
370
-1
100
AcDbDimension
2
*D15
10
-0.6965
20
216.5
30
0
11
-0.7715
21
216.5375
31
0
70
32
71
5
72
0
3
Standard
53
0
210
0
220
0
230
1
100
AcDbAlignedDimension
13
-0.8465
23
216.609
33
0
14
-0.6965
24
216.609
34
0
100
AcDbRotatedDimension
0
DIMENSION
5
176
100
AcDbEntity
8
3D
6
ByLayer
62
256
370
-1
100
AcDbDimension
2
*D16
10
0.6965
20
216.5
30
0
11
-1.08726089714e-16
21
216.5375
31
0
70
32
71
5
72
0
3
Standard
53
0
210
0
220
0
230
1
100
AcDbAlignedDimension
13
-0.6965
23
216.609
33
0
14
0.6965
24
216.609
34
0
100
AcDbRotatedDimension
0
DIMENSION
5
177
100
AcDbEntity
8
3D
6
ByLayer
62
256
370
-1
100
AcDbDimension
2
*D17
10
0.8
20
216.609
30
0
11
0.7625
21
216.814
31
0
70
32
71
5
72
0
3
Standard
53
0
210
0
220
0
230
1
100
AcDbAlignedDimension
13
0.6965
23
217.019
33
0
14
0.6965
24
216.609
34
0
50
90
100
AcDbRotatedDimension
0
DIMENSION
5
178
100
AcDbEntity
8
3D
6
ByLayer
62
256
370
-1
100
AcDbDimension
2
*D18
10
0.4
20
216.685
30
0
11
0.3625
21
216.852
31
0
70
32
71
5
72
0
3
Standard
53
0
210
0
220
0
230
1
100
AcDbAlignedDimension
13
0.4675
23
217.019
33
0
14
0.4675
24
216.685
34
0
50
90
100
AcDbRotatedDimension
0
DIMENSION
5
179
100
AcDbEntity
8
4D
6
ByLayer
62
256
370
-1
100
AcDbDimension
2
*D19
10
-0.55
20
217.019
30
0
11
-0.5875
21
217.024
31
0
70
32
71
5
72
0
3
Standard
53
0
210
0
220
0
230
1
100
AcDbAlignedDimension
13
-0.5315
23
217.029
33
0
14
-0.5315
24
217.019
34
0
50
90
100
AcDbRotatedDimension
0
DIMENSION
5
17A
100
AcDbEntity
8
4D
6
ByLayer
62
256
370
-1
100
AcDbDimension
2
*D20
10
-0.4675
20
216.94
30
0
11
-0.4995
21
216.9775
31
0
70
32
71
5
72
0
3
Standard
53
0
210
0
220
0
230
1
100
AcDbAlignedDimension
13
-0.5315
23
217.019
33
0
14
-0.4675
24
217.019
34
0
100
AcDbRotatedDimension
0
LINE
5
17B
100
AcDbEntity
8
5
6
ByLayer
62
256
370
-1
100
AcDbLine
10
-0.6965
20
217.019
11
-1.0015
21
217.019
0
LINE
5
17C
100
AcDbEntity
8
5
6
ByLayer
62
256
370
-1
100
AcDbLine
10
-1.0015
20
217.019
11
-1.3205
21
216.7
0
LINE
5
17D
100
AcDbEntity
8
5
6
ByLayer
62
256
370
-1
100
AcDbLine
10
-1.3205
20
216.7
11
-2.229
21
216.7
0
LINE
5
17E
100
AcDbEntity
8
5
6
ByLayer
62
256
370
-1
100
AcDbLine
10
2.229
20
216.7
11
1.3205
21
216.7
0
LINE
5
17F
100
AcDbEntity
8
5
6
ByLayer
62
256
370
-1
100
AcDbLine
10
1.3205
20
216.7
11
1.0015
21
217.019
0
LINE
5
180
100
AcDbEntity
8
5
6
ByLayer
62
256
370
-1
100
AcDbLine
10
1.0015
20
217.019
11
0.6965
21
217.019
0
DIMENSION
5
181
100
AcDbEntity
8
5D
6
ByLayer
62
256
370
-1
100
AcDbDimension
2
*D21
10
-0.6965
20
217.4
30
0
11
-0.849
21
217.4375
31
0
70
32
71
5
72
0
3
Standard
53
0
210
0
220
0
230
1
100
AcDbAlignedDimension
13
-1.0015
23
217.019
33
0
14
-0.6965
24
217.019
34
0
100
AcDbRotatedDimension
0
DIMENSION
5
182
100
AcDbEntity
8
5D
6
ByLayer
62
256
370
-1
100
AcDbDimension
2
*D22
10
-1.0015
20
216.5
30
0
11
-1.161
21
216.5375
31
0
70
32
71
5
72
0
3
Standard
53
0
210
0
220
0
230
1
100
AcDbAlignedDimension
13
-1.3205
23
216.7
33
0
14
-1.0015
24
217.019
34
0
100
AcDbRotatedDimension
0
DIMENSION
5
183
100
AcDbEntity
8
5D
6
ByLayer
62
256
370
-1
100
AcDbDimension
2
*D23
10
-1.429
20
217.019
30
0
11
-1.4665
21
216.8595
31
0
70
32
71
5
72
0
3
Standard
53
0
210
0
220
0
230
1
100
AcDbAlignedDimension
13
-1.3205
23
216.7
33
0
14
-1.0015
24
217.019
34
0
50
90
100
AcDbRotatedDimension
0
LEADER
5
184
100
AcDbEntity
8
2D
6
ByLayer
62
256
370
-1
100
AcDbLeader
3
Standard
71
1
72
0
73
3
74
0
75
0
40
1
41
10
76
4
76
4
10
0.762391651417
20
216.609
30
0
10
0.851985348812
20
216.68489282
30
0
10
0.997363801188
20
216.590227781
30
0
10
1.09371928707
20
216.588537334
30
0
0
MTEXT
5
185
100
AcDbEntity
8
2D
6
ByLayer
62
256
370
-1
100
AcDbMText
10
1.26107355201
20
216.610513147
30
0
40
0.05
41
0.2875
71
2
72
1
1
BB Level
7
opengosttypea-regular
210
0
220
0
230
1
50
0
73
2
44
1
0
DIMENSION
5
186
100
AcDbEntity
8
1D
6
ByLayer
62
256
370
-1
100
AcDbDimension
2
*D25
10
0.85
20
217.05
30
0
11
0
21
0
31
0
70
34
71
5
3
Standard
53
0
210
0
220
0
230
1
100
AcDb2LineAngularDimension
13
1.25
23
216.7
33
0
14
2
24
216.7
34
0
15
0.65
25
216.4
35
0
16
1.32861406563
26
217.383611654
36
0
0
DIMENSION
5
187
100
AcDbEntity
8
1D
6
ByLayer
62
256
370
-1
100
AcDbDimension
2
*D26
10
1.05
20
217.05
30
0
11
0
21
0
31
0
70
34
71
5
3
Standard
53
0
210
0
220
0
230
1
100
AcDb2LineAngularDimension
13
0.65
23
216.4
33
0
14
0
24
216.4
34
0
15
1.25
25
216.7
35
0
16
1.06371904943
26
216.622038482
36
0
0
ENDSEC
0
SECTION
2
OBJECTS
0
DICTIONARY
5
C
330
0
100
AcDbDictionary
281
1
3
ACAD_GROUP
350
D
0
DICTIONARY
5
D
330
C
100
AcDbDictionary
281
1
0
ENDSEC
0
EOF
